  0
SECTION
  2
HEADER
  9
$ACADVER
  1
AC1014
  9
$ACADMAINTVER
 70
     9
  9
$DWGCODEPAGE
  3
ANSI_1252
  9
$INSBASE
 10
0.0
 20
0.0
 30
0.0
  9
$EXTMIN
 10
3.699591950953682
 20
4.434861619088242
 30
0.0
  9
$EXTMAX
 10
8.240216854103401
 20
8.117922988888366
 30
0.0
  9
$LIMMIN
 10
0.0
 20
0.0
  9
$LIMMAX
 10
12.0
 20
9.0
  9
$ORTHOMODE
 70
     0
  9
$REGENMODE
 70
     1
  9
$FILLMODE
 70
     1
  9
$QTEXTMODE
 70
     0
  9
$MIRRTEXT
 70
     1
  9
$DRAGMODE
 70
     2
  9
$LTSCALE
 40
1.0
  9
$OSMODE
 70
     0
  9
$ATTMODE
 70
     1
  9
$TEXTSIZE
 40
0.2
  9
$TRACEWID
 40
0.05
  9
$TEXTSTYLE
  7
STANDARD
  9
$CLAYER
  8
0
  9
$CELTYPE
  6
BYLAYER
  9
$CECOLOR
 62
   256
  9
$CELTSCALE
 40
1.0
  9
$DELOBJ
 70
     1
  9
$DISPSILH
 70
     0
  9
$DIMSCALE
 40
1.0
  9
$DIMASZ
 40
0.18
  9
$DIMEXO
 40
0.0625
  9
$DIMDLI
 40
0.38
  9
$DIMRND
 40
0.0
  9
$DIMDLE
 40
0.0
  9
$DIMEXE
 40
0.18
  9
$DIMTP
 40
0.0
  9
$DIMTM
 40
0.0
  9
$DIMTXT
 40
0.18
  9
$DIMCEN
 40
0.09
  9
$DIMTSZ
 40
0.0
  9
$DIMTOL
 70
     0
  9
$DIMLIM
 70
     0
  9
$DIMTIH
 70
     1
  9
$DIMTOH
 70
     1
  9
$DIMSE1
 70
     0
  9
$DIMSE2
 70
     0
  9
$DIMTAD
 70
     0
  9
$DIMZIN
 70
     0
  9
$DIMBLK
  1

  9
$DIMASO
 70
     1
  9
$DIMSHO
 70
     1
  9
$DIMPOST
  1

  9
$DIMAPOST
  1

  9
$DIMALT
 70
     0
  9
$DIMALTD
 70
     2
  9
$DIMALTF
 40
25.4
  9
$DIMLFAC
 40
1.0
  9
$DIMTOFL
 70
     0
  9
$DIMTVP
 40
0.0
  9
$DIMTIX
 70
     0
  9
$DIMSOXD
 70
     0
  9
$DIMSAH
 70
     0
  9
$DIMBLK1
  1

  9
$DIMBLK2
  1

  9
$DIMSTYLE
  2
STANDARD
  9
$DIMCLRD
 70
     0
  9
$DIMCLRE
 70
     0
  9
$DIMCLRT
 70
     0
  9
$DIMTFAC
 40
1.0
  9
$DIMGAP
 40
0.09
  9
$DIMJUST
 70
     0
  9
$DIMSD1
 70
     0
  9
$DIMSD2
 70
     0
  9
$DIMTOLJ
 70
     1
  9
$DIMTZIN
 70
     0
  9
$DIMALTZ
 70
     0
  9
$DIMALTTZ
 70
     0
  9
$DIMFIT
 70
     3
  9
$DIMUPT
 70
     0
  9
$DIMUNIT
 70
     2
  9
$DIMDEC
 70
     2
  9
$DIMTDEC
 70
     2
  9
$DIMALTU
 70
     2
  9
$DIMALTTD
 70
     2
  9
$DIMTXSTY
  7
STANDARD
  9
$DIMAUNIT
 70
     0
  9
$LUNITS
 70
     2
  9
$LUPREC
 70
     4
  9
$SKETCHINC
 40
0.1
  9
$FILLETRAD
 40
0.5
  9
$AUNITS
 70
     0
  9
$AUPREC
 70
     0
  9
$MENU
  1
.
  9
$ELEVATION
 40
0.0
  9
$PELEVATION
 40
0.0
  9
$THICKNESS
 40
0.0
  9
$LIMCHECK
 70
     0
  9
$BLIPMODE
 70
     0
  9
$CHAMFERA
 40
0.5
  9
$CHAMFERB
 40
0.5
  9
$CHAMFERC
 40
1.0
  9
$CHAMFERD
 40
0.0
  9
$SKPOLY
 70
     0
  9
$TDCREATE
 40
2452177.278238657
  9
$TDUPDATE
 40
2452646.373199653
  9
$TDINDWG
 40
0.0027336806
  9
$TDUSRTIMER
 40
0.0027336806
  9
$USRTIMER
 70
     1
  9
$ANGBASE
 50
0.0
  9
$ANGDIR
 70
     0
  9
$PDMODE
 70
     0
  9
$PDSIZE
 40
0.0
  9
$PLINEWID
 40
0.0
  9
$COORDS
 70
     1
  9
$SPLFRAME
 70
     0
  9
$SPLINETYPE
 70
     6
  9
$SPLINESEGS
 70
     8
  9
$ATTDIA
 70
     1
  9
$ATTREQ
 70
     1
  9
$HANDLING
 70
-16383
  9
$HANDSEED
  5
4A0
  9
$SURFTAB1
 70
     6
  9
$SURFTAB2
 70
     6
  9
$SURFTYPE
 70
     6
  9
$SURFU
 70
     6
  9
$SURFV
 70
     6
  9
$UCSNAME
  2

  9
$UCSORG
 10
0.0
 20
0.0
 30
0.0
  9
$UCSXDIR
 10
1.0
 20
0.0
 30
0.0
  9
$UCSYDIR
 10
0.0
 20
1.0
 30
0.0
  9
$PUCSNAME
  2

  9
$PUCSORG
 10
0.0
 20
0.0
 30
0.0
  9
$PUCSXDIR
 10
1.0
 20
0.0
 30
0.0
  9
$PUCSYDIR
 10
0.0
 20
1.0
 30
0.0
  9
$USERI1
 70
     0
  9
$USERI2
 70
     0
  9
$USERI3
 70
     0
  9
$USERI4
 70
     0
  9
$USERI5
 70
     0
  9
$USERR1
 40
0.0
  9
$USERR2
 40
0.0
  9
$USERR3
 40
0.0
  9
$USERR4
 40
0.0
  9
$USERR5
 40
0.0
  9
$WORLDVIEW
 70
     1
  9
$SHADEDGE
 70
     3
  9
$SHADEDIF
 70
    70
  9
$TILEMODE
 70
     1
  9
$MAXACTVP
 70
    64
  9
$PINSBASE
 10
0.0
 20
0.0
 30
0.0
  9
$PLIMCHECK
 70
     0
  9
$PEXTMIN
 10
1.000000000000000E+20
 20
1.000000000000000E+20
 30
1.000000000000000E+20
  9
$PEXTMAX
 10
-1.000000000000000E+20
 20
-1.000000000000000E+20
 30
-1.000000000000000E+20
  9
$PLIMMIN
 10
0.0
 20
0.0
  9
$PLIMMAX
 10
12.0
 20
9.0
  9
$UNITMODE
 70
     0
  9
$VISRETAIN
 70
     1
  9
$PLINEGEN
 70
     0
  9
$PSLTSCALE
 70
     1
  9
$TREEDEPTH
 70
  3020
  9
$PICKSTYLE
 70
     1
  9
$CMLSTYLE
  2
STANDARD
  9
$CMLJUST
 70
     0
  9
$CMLSCALE
 40
1.0
  9
$PROXYGRAPHICS
 70
     1
  9
$MEASUREMENT
 70
     0
  0
ENDSEC
  0
SECTION
  2
CLASSES
  0
CLASS
  1
ACDBDICTIONARYWDFLT
  2
AcDbDictionaryWithDefault
  3
AutoCAD 2000
 90
        0
280
     0
281
     0
  0
CLASS
  1
ACDBPLACEHOLDER
  2
AcDbPlaceHolder
  3
AutoCAD 2000
 90
        0
280
     0
281
     0
  0
CLASS
  1
LAYOUT
  2
AcDbLayout
  3
AutoCAD 2000
 90
        0
280
     0
281
     0
  0
CLASS
  1
LONG_TRANSACTION
  2
AcDbLongTransaction
  3
AutoCAD 2000
 90
        0
280
     0
281
     0
  0
CLASS
  1
LWPOLYLINE
  2
AcDbPolyline
  3
AutoCAD 2000
 90
        0
280
     0
281
     1
  0
CLASS
  1
HATCH
  2
AcDbHatch
  3
AutoCAD 2000
 90
        0
280
     0
281
     1
  0
CLASS
  1
XRECORD
  2
AcDbXrecord
  3
AutoCAD 2000
 90
        0
280
     0
281
     0
  0
ENDSEC
  0
SECTION
  2
TABLES
  0
TABLE
  2
VPORT
  5
8
330
0
100
AcDbSymbolTable
 70
     3
  0
VPORT
  5
479
330
8
100
AcDbSymbolTableRecord
100
AcDbViewportTableRecord
  2
*ACTIVE
 70
     0
 10
0.0
 20
0.0
 11
1.0
 21
1.0
 12
6.129115591744634
 22
5.746323524645392
 13
0.0
 23
0.0
 14
0.5
 24
0.5
 15
0.5
 25
0.5
 16
0.0
 26
0.0
 36
1.0
 17
0.0
 27
0.0
 37
0.0
 40
8.999999994093839
 41
1.462515883100381
 42
50.0
 43
0.0
 44
0.0
 50
0.0
 51
0.0
 71
     0
 72
   100
 73
     1
 74
     3
 75
     0
 76
     0
 77
     0
 78
     0
  0
ENDTAB
  0
TABLE
  2
LTYPE
  5
5
330
0
100
AcDbSymbolTable
 70
     1
  0
LTYPE
  5
14
330
5
100
AcDbSymbolTableRecord
100
AcDbLinetypeTableRecord
  2
BYBLOCK
 70
     0
  3

 72
    65
 73
     0
 40
0.0
  0
LTYPE
  5
15
330
5
100
AcDbSymbolTableRecord
100
AcDbLinetypeTableRecord
  2
BYLAYER
 70
     0
  3

 72
    65
 73
     0
 40
0.0
  0
LTYPE
  5
16
330
5
100
AcDbSymbolTableRecord
100
AcDbLinetypeTableRecord
  2
CONTINUOUS
 70
     0
  3
Solid line
 72
    65
 73
     0
 40
0.0
  0
ENDTAB
  0
TABLE
  2
LAYER
  5
2
330
0
100
AcDbSymbolTable
 70
     4
  0
LAYER
  5
10
330
2
100
AcDbSymbolTableRecord
100
AcDbLayerTableRecord
  2
0
 70
     0
 62
     7
  6
CONTINUOUS
  0
LAYER
  5
34
330
2
100
AcDbSymbolTableRecord
100
AcDbLayerTableRecord
  2
L
 70
     0
 62
     7
  6
CONTINUOUS
  0
LAYER
  5
45
330
2
100
AcDbSymbolTableRecord
100
AcDbLayerTableRecord
  2
DEFPOINTS
 70
     0
 62
     7
  6
CONTINUOUS
  0
LAYER
  5
88
330
2
100
AcDbSymbolTableRecord
100
AcDbLayerTableRecord
  2
TX
 70
     0
 62
   150
  6
CONTINUOUS
  0
ENDTAB
  0
TABLE
  2
STYLE
  5
3
330
0
100
AcDbSymbolTable
 70
     3
  0
STYLE
  5
11
330
3
100
AcDbSymbolTableRecord
100
AcDbTextStyleTableRecord
  2
STANDARD
 70
     0
 40
0.0
 41
1.0
 50
0.0
 71
     0
 42
0.2
  3
txt
  4

  0
STYLE
  5
35
330
3
100
AcDbSymbolTableRecord
100
AcDbTextStyleTableRecord
  2
REG
 70
     0
 40
0.0
 41
1.0
 50
0.0
 71
     0
 42
0.09375
  3
E:\R13\com\fonts\ARCHITXT.SHX
  4

  0
STYLE
  5
36
330
3
100
AcDbSymbolTableRecord
100
AcDbTextStyleTableRecord
  2
DIMTXT
 70
     0
 40
0.0
 41
1.0
 50
0.0
 71
     0
 42
1.125
  3
archt.shx
  4

  0
ENDTAB
  0
TABLE
  2
VIEW
  5
6
330
0
100
AcDbSymbolTable
 70
     0
  0
ENDTAB
  0
TABLE
  2
UCS
  5
7
330
0
100
AcDbSymbolTable
 70
     0
  0
ENDTAB
  0
TABLE
  2
APPID
  5
9
330
0
100
AcDbSymbolTable
 70
     1
  0
APPID
  5
12
330
9
100
AcDbSymbolTableRecord
100
AcDbRegAppTableRecord
  2
ACAD
 70
     0
  0
ENDTAB
  0
TABLE
  2
DIMSTYLE
  5
A
330
0
100
AcDbSymbolTable
 70
     6
  0
DIMSTYLE
105
27
102
{ACAD_REACTORS
330
C1
330
CF
102
}
330
A
100
AcDbSymbolTableRecord
100
AcDbDimStyleTableRecord
  2
STANDARD
 70
     0
  3

  4

  5

  6

  7

 40
1.0
 41
0.18
 42
0.0625
 43
0.38
 44
0.18
 45
0.0
 46
0.0
 47
0.0
 48
0.0
140
0.18
141
0.09
142
0.0
143
25.4
144
1.0
145
0.0
146
1.0
147
0.09
 71
     0
 72
     0
 73
     1
 74
     1
 75
     0
 76
     0
 77
     0
 78
     0
170
     0
171
     2
172
     0
173
     0
174
     0
175
     0
176
     0
177
     0
178
     0
270
     2
271
     2
272
     2
273
     2
274
     2
340
11
275
     0
280
     0
281
     0
282
     0
283
     1
284
     0
285
     0
286
     0
287
     3
288
     0
  0
DIMSTYLE
105
37
330
A
100
AcDbSymbolTableRecord
100
AcDbDimStyleTableRecord
  2
1
 70
     0
  3

  4

  5

  6

  7

 40
1.0
 41
1.125
 42
0.5
 43
0.375
 44
1.19921875
 45
0.0
 46
0.5
 47
0.0
 48
0.0
140
1.125
141
0.125
142
0.0
143
25.4
144
1.0
145
0.0
146
0.8
147
0.5625
 71
     0
 72
     0
 73
     0
 74
     0
 75
     0
 76
     0
 77
     1
 78
     3
170
     0
171
     2
172
     1
173
     0
174
     1
175
     0
176
   133
177
   133
178
   150
270
     2
271
     3
272
     3
273
     2
274
     2
340
36
275
     0
280
     0
281
     0
282
     0
283
     1
284
     0
285
     0
286
     0
287
     4
288
     0
  0
DIMSTYLE
105
38
330
A
100
AcDbSymbolTableRecord
100
AcDbDimStyleTableRecord
  2
1$2
 70
     0
  3

  4

  5
DOTSMALL
  6

  7

 40
1.0
 41
1.5
 42
0.5
 43
0.375
 44
1.19921875
 45
0.0
 46
0.5
 47
0.0
 48
0.0
140
0.75
141
0.125
142
0.0
143
25.4
144
1.0
145
0.0
146
0.8
147
0.5625
 71
     0
 72
     0
 73
     0
 74
     0
 75
     0
 76
     0
 77
     1
 78
     3
170
     0
171
     2
172
     1
173
     0
174
     1
175
     0
176
   133
177
   133
178
   150
270
     2
271
     3
272
     3
273
     2
274
     2
340
36
275
     0
280
     0
281
     0
282
     0
283
     1
284
     0
285
     0
286
     0
287
     4
288
     0
  0
DIMSTYLE
105
39
330
A
100
AcDbSymbolTableRecord
100
AcDbDimStyleTableRecord
  2
1$4
 70
     0
  3

  4

  5

  6

  7
DOTSMALL
 40
1.0
 41
1.5
 42
0.5
 43
0.375
 44
1.19921875
 45
0.0
 46
0.5
 47
0.0
 48
0.0
140
0.75
141
0.125
142
0.0
143
25.4
144
1.0
145
0.0
146
0.8
147
0.5625
 71
     0
 72
     0
 73
     0
 74
     0
 75
     0
 76
     0
 77
     1
 78
     3
170
     0
171
     2
172
     1
173
     1
174
     1
175
     0
176
   133
177
   133
178
   150
270
     2
271
     3
272
     3
273
     2
274
     2
340
36
275
     0
280
     0
281
     0
282
     0
283
     1
284
     0
285
     0
286
     0
287
     4
288
     0
  0
DIMSTYLE
105
3A
330
A
100
AcDbSymbolTableRecord
100
AcDbDimStyleTableRecord
  2
1$3
 70
     0
  3

  4

  5
DOTSMALL
  6

  7

 40
1.0
 41
1.5
 42
0.5
 43
0.375
 44
1.19921875
 45
0.0
 46
0.5
 47
0.0
 48
0.0
140
0.75
141
0.125
142
0.0
143
25.4
144
1.0
145
0.0
146
0.8
147
0.5625
 71
     0
 72
     0
 73
     0
 74
     0
 75
     0
 76
     0
 77
     1
 78
     3
170
     0
171
     2
172
     1
173
     0
174
     1
175
     0
176
   133
177
   133
178
   150
270
     2
271
     3
272
     3
273
     2
274
     2
340
36
275
     0
280
     0
281
     0
282
     0
283
     1
284
     0
285
     0
286
     0
287
     4
288
     0
  0
DIMSTYLE
105
3B
330
A
100
AcDbSymbolTableRecord
100
AcDbDimStyleTableRecord
  2
1$7
 70
     0
  3

  4

  5

  6

  7

 40
1.0
 41
1.0
 42
0.5
 43
0.375
 44
1.19921875
 45
0.0
 46
0.5
 47
0.0
 48
0.0
140
0.75
141
0.125
142
0.0
143
25.4
144
1.0
145
0.0
146
0.8
147
0.5625
 71
     0
 72
     0
 73
     0
 74
     0
 75
     0
 76
     0
 77
     1
 78
     3
170
     0
171
     2
172
     1
173
     0
174
     1
175
     0
176
   133
177
   133
178
   150
270
     2
271
     3
272
     3
273
     2
274
     2
340
36
275
     0
280
     0
281
     0
282
     0
283
     1
284
     0
285
     0
286
     0
287
     4
288
     0
  0
ENDTAB
  0
TABLE
  2
BLOCK_RECORD
  5
1
330
0
100
AcDbSymbolTable
 70
     5
  0
BLOCK_RECORD
  5
1F
102
{ACAD_XDICTIONARY
360
49C
102
}
330
1
100
AcDbSymbolTableRecord
100
AcDbBlockTableRecord
  2
*MODEL_SPACE
  0
BLOCK_RECORD
  5
1B
102
{ACAD_XDICTIONARY
360
49A
102
}
330
1
100
AcDbSymbolTableRecord
100
AcDbBlockTableRecord
  2
*PAPER_SPACE
  0
BLOCK_RECORD
  5
2B
330
1
100
AcDbSymbolTableRecord
100
AcDbBlockTableRecord
  2
_DOT
  0
BLOCK_RECORD
  5
30
330
1
100
AcDbSymbolTableRecord
100
AcDbBlockTableRecord
  2
_DOTSMALL
  0
BLOCK_RECORD
  5
C2
330
1
100
AcDbSymbolTableRecord
100
AcDbBlockTableRecord
  2
*D3
  0
BLOCK_RECORD
  5
D0
330
1
100
AcDbSymbolTableRecord
100
AcDbBlockTableRecord
  2
*D4
  0
ENDTAB
  0
ENDSEC
  0
SECTION
  2
BLOCKS
  0
BLOCK
  5
20
330
1F
100
AcDbEntity
  8
0
100
AcDbBlockBegin
  2
*MODEL_SPACE
 70
     0
 10
0.0
 20
0.0
 30
0.0
  3
*MODEL_SPACE
  1

  0
ENDBLK
  5
21
330
1F
100
AcDbEntity
  8
0
100
AcDbBlockEnd
  0
BLOCK
  5
1C
330
1B
100
AcDbEntity
 67
     1
  8
0
100
AcDbBlockBegin
  2
*PAPER_SPACE
 70
     0
 10
0.0
 20
0.0
 30
0.0
  3
*PAPER_SPACE
  1

  0
ENDBLK
  5
1D
330
1B
100
AcDbEntity
 67
     1
  8
0
100
AcDbBlockEnd
  0
BLOCK
  5
2E
330
2B
100
AcDbEntity
  8
0
100
AcDbBlockBegin
  2
_DOT
 70
     0
 10
0.0
 20
0.0
 30
0.0
  3
_DOT
  1

  0
LWPOLYLINE
  5
2C
330
2B
100
AcDbEntity
  8
L
 62
     0
100
AcDbPolyline
 90
        2
 70
     1
 43
0.5
 10
-0.25
 20
0.0
 42
1.0
 10
0.25
 20
0.0
 42
1.0
  0
LINE
  5
2D
330
2B
100
AcDbEntity
  8
L
 62
     0
100
AcDbLine
 10
-0.5
 20
0.0
 30
0.0
 11
-1.0
 21
0.0
 31
0.0
  0
ENDBLK
  5
2F
330
2B
100
AcDbEntity
  8
0
100
AcDbBlockEnd
  0
BLOCK
  5
32
330
30
100
AcDbEntity
  8
0
 48
0.116666
100
AcDbBlockBegin
  2
_DOTSMALL
 70
     0
 10
0.0
 20
0.0
 30
0.0
  3
_DOTSMALL
  1

  0
LWPOLYLINE
  5
31
330
30
100
AcDbEntity
  8
0
  6
BYBLOCK
 62
     0
100
AcDbPolyline
 90
        2
 70
     1
 43
0.5
 10
-0.0625
 20
0.0
 42
1.0
 10
0.0625
 20
0.0
 42
1.0
  0
ENDBLK
  5
33
330
30
100
AcDbEntity
  8
0
 48
0.116666
100
AcDbBlockEnd
  0
BLOCK
  5
CD
330
C2
100
AcDbEntity
  8
0
100
AcDbBlockBegin
  2
*D3
 70
     1
 10
0.0
 20
0.0
 30
0.0
  3
*D3
  1

  0
LINE
  5
C3
330
C2
100
AcDbEntity
  8
0
 62
     0
100
AcDbLine
 10
4.600919703594552
 20
5.53988756944129
 30
0.0
 11
4.600919703594552
 21
8.117922988888366
 31
0.0
  0
LINE
  5
C4
330
C2
100
AcDbEntity
  8
0
 62
     0
100
AcDbLine
 10
7.860919703594543
 20
5.554887569441277
 30
0.0
 11
7.860919703594543
 21
8.117922988888366
 31
0.0
  0
LINE
  5
C5
330
C2
100
AcDbEntity
  8
0
 62
     0
100
AcDbLine
 10
4.780919703594552
 20
7.937922988888367
 30
0.0
 11
5.870919703594547
 21
7.937922988888367
 31
0.0
  0
LINE
  5
C6
330
C2
100
AcDbEntity
  8
0
 62
     0
100
AcDbLine
 10
7.680919703594543
 20
7.937922988888367
 30
0.0
 11
6.590919703594548
 21
7.937922988888367
 31
0.0
  0
SOLID
  5
C7
330
C2
100
AcDbEntity
  8
0
 62
     0
100
AcDbTrace
 10
4.780919703594552
 20
7.967922988888367
 30
0.0
 11
4.780919703594552
 21
7.907922988888366
 31
0.0
 12
4.600919703594552
 22
7.937922988888367
 32
0.0
 13
4.600919703594552
 23
7.937922988888367
 33
0.0
  0
SOLID
  5
C8
330
C2
100
AcDbEntity
  8
0
 62
     0
100
AcDbTrace
 10
7.680919703594543
 20
7.967922988888367
 30
0.0
 11
7.680919703594543
 21
7.907922988888366
 31
0.0
 12
7.860919703594543
 22
7.937922988888367
 32
0.0
 13
7.860919703594543
 23
7.937922988888367
 33
0.0
  0
MTEXT
  5
C9
330
C2
100
AcDbEntity
  8
0
 62
     0
100
AcDbMText
 10
6.230919703594548
 20
7.937922988888367
 30
0.0
 40
0.18
 41
0.0
 71
     5
 72
     1
  1
\A1;3.26
1001
ACAD
1000
MTEXTBEGIN
1070
    73
1070
     1
1070
    44
1040
1.0
1070
    74
1070
     0
1000
MTEXTEND
  0
POINT
  5
CA
330
C2
100
AcDbEntity
  8
DEFPOINTS
 62
     0
100
AcDbPoint
 10
4.600919703594552
 20
5.47738756944129
 30
0.0
  0
POINT
  5
CB
330
C2
100
AcDbEntity
  8
DEFPOINTS
 62
     0
100
AcDbPoint
 10
7.860919703594543
 20
5.492387569441277
 30
0.0
  0
POINT
  5
CC
330
C2
100
AcDbEntity
  8
DEFPOINTS
 62
     0
100
AcDbPoint
 10
7.860919703594543
 20
7.937922988888367
 30
0.0
  0
ENDBLK
  5
CE
330
C2
100
AcDbEntity
  8
0
100
AcDbBlockEnd
  0
BLOCK
  5
DB
330
D0
100
AcDbEntity
  8
0
100
AcDbBlockBegin
  2
*D4
 70
     1
 10
0.0
 20
0.0
 30
0.0
  3
*D4
  1

  0
LINE
  5
D1
330
D0
100
AcDbEntity
  8
0
 62
     0
100
AcDbLine
 10
4.538419703594552
 20
5.47738756944129
 30
0.0
 11
3.759591950953683
 21
5.47738756944129
 31
0.0
  0
LINE
  5
D2
330
D0
100
AcDbEntity
  8
0
 62
     0
100
AcDbLine
 10
6.160919703594441
 20
7.352387569441374
 30
0.0
 11
3.759591950953683
 21
7.352387569441375
 31
0.0
  0
LINE
  5
D3
330
D0
100
AcDbEntity
  8
0
 62
     0
100
AcDbLine
 10
3.939591950953683
 20
5.65738756944129
 30
0.0
 11
3.939591950953683
 21
6.234887569441332
 31
0.0
  0
LINE
  5
D4
330
D0
100
AcDbEntity
  8
0
 62
     0
100
AcDbLine
 10
3.939591950953683
 20
7.172387569441375
 30
0.0
 11
3.939591950953683
 21
6.594887569441332
 31
0.0
  0
SOLID
  5
D5
330
D0
100
AcDbEntity
  8
0
 62
     0
100
AcDbTrace
 10
3.909591950953683
 20
5.65738756944129
 30
0.0
 11
3.969591950953683
 21
5.65738756944129
 31
0.0
 12
3.939591950953683
 22
5.47738756944129
 32
0.0
 13
3.939591950953683
 23
5.47738756944129
 33
0.0
  0
SOLID
  5
D6
330
D0
100
AcDbEntity
  8
0
 62
     0
100
AcDbTrace
 10
3.909591950953684
 20
7.172387569441375
 30
0.0
 11
3.969591950953683
 21
7.172387569441375
 31
0.0
 12
3.939591950953683
 22
7.352387569441375
 32
0.0
 13
3.939591950953683
 23
7.352387569441375
 33
0.0
  0
MTEXT
  5
D7
330
D0
100
AcDbEntity
  8
0
 62
     0
100
AcDbMText
 10
3.939591950953682
 20
6.414887569441333
 30
0.0
 40
0.18
 41
0.0
 71
     5
 72
     1
  1
\A1;1.88
1001
ACAD
1000
MTEXTBEGIN
1070
    73
1070
     1
1070
    44
1040
1.0
1070
    74
1070
     0
1000
MTEXTEND
  0
POINT
  5
D8
330
D0
100
AcDbEntity
  8
DEFPOINTS
 62
     0
100
AcDbPoint
 10
4.600919703594552
 20
5.47738756944129
 30
0.0
  0
POINT
  5
D9
330
D0
100
AcDbEntity
  8
DEFPOINTS
 62
     0
100
AcDbPoint
 10
6.223419703594441
 20
7.352387569441374
 30
0.0
  0
POINT
  5
DA
330
D0
100
AcDbEntity
  8
DEFPOINTS
 62
     0
100
AcDbPoint
 10
3.939591950953683
 20
7.352387569441375
 30
0.0
  0
ENDBLK
  5
DC
330
D0
100
AcDbEntity
  8
0
100
AcDbBlockEnd
  0
ENDSEC
  0
SECTION
  2
ENTITIES
  0
LWPOLYLINE
  5
BD
330
1F
100
AcDbEntity
  8
L
 62
     5
 48
0.116666
100
AcDbPolyline
 90
        2
 70
     0
 43
0.028125
 10
3.719194224792964
 20
4.625580220389918
 10
8.240216854103401
 20
4.625580220389918
  0
TEXT
  5
BE
330
1F
100
AcDbEntity
  8
L
 62
     3
 48
0.116666
100
AcDbText
 10
3.812930067474063
 20
4.719316063070903
 30
0.0
 40
0.140625
  1
SERIES 3 - 3 1/4" RADIUS POST #1210
  7
REG
100
AcDbText
  0
TEXT
  5
BF
330
1F
100
AcDbEntity
  8
TX
 48
0.116666
100
AcDbText
 10
3.812930067474063
 20
4.438094377708933
 30
0.0
 40
0.09375
  1
SCALE : FULL SIZE
  7
REG
 11
3.812930067474063
 21
4.531844377708933
 31
0.0
100
AcDbText
 73
     3
  0
DIMENSION
  5
C1
330
1F
100
AcDbEntity
  8
0
100
AcDbDimension
  2
*D3
 10
7.860919703594543
 20
7.937922988888367
 30
0.0
 11
6.230919703594548
 21
7.937922988888367
 31
0.0
 70
    32
  3
STANDARD
100
AcDbAlignedDimension
 13
4.600919703594552
 23
5.47738756944129
 33
0.0
 14
7.860919703594543
 24
5.492387569441277
 34
0.0
100
AcDbRotatedDimension
  0
DIMENSION
  5
CF
330
1F
100
AcDbEntity
  8
0
100
AcDbDimension
  2
*D4
 10
3.939591950953683
 20
7.352387569441375
 30
0.0
 11
3.939591950953682
 21
6.414887569441333
 31
0.0
 70
    32
  3
STANDARD
100
AcDbAlignedDimension
 13
4.600919703594552
 23
5.47738756944129
 33
0.0
 14
6.223419703594441
 24
7.352387569441374
 34
0.0
 50
90.0
100
AcDbRotatedDimension
  0
LWPOLYLINE
  5
30C
330
1F
100
AcDbEntity
  8
L
 62
     5
100
AcDbPolyline
 90
        8
 70
     1
 43
0.0
 10
5.300879313987072
 20
6.881996501543249
 42
-0.4616035107731469
 10
5.308376114748594
 20
6.976067857305207
 42
-0.3238312532298676
 10
7.138463292440438
 20
6.976067857305258
 42
-0.4616035107723051
 10
7.14596009320159
 20
6.881996501543355
 10
6.964510540665913
 20
6.70054694900764
 42
-0.1989123673796557
 10
6.920669920232437
 20
6.682387569441218
 10
5.526169486956558
 20
6.682387569441197
 42
-0.1989123673799362
 10
5.482328866522873
 20
6.700546949007659
  0
LWPOLYLINE
  5
316
330
1F
100
AcDbEntity
  8
L
 62
     5
100
AcDbPolyline
 90
       77
 70
     1
 43
0.0
 10
6.860419703594441
 20
6.477387569441233
 42
0.4142135623730951
 10
6.829419703594492
 20
6.446387569441228
 10
6.829419703594492
 20
6.258387569441239
 10
6.829419703594493
 20
6.258387569441239
 42
0.4142135623730951
 10
6.860419703594441
 20
6.227387569441291
 10
6.860419703594441
 20
6.22738756944129
 10
6.91291970359445
 20
6.22738756944129
 42
-0.4142135623730951
 10
6.922919703594441
 20
6.217387569441299
 10
6.922919703594441
 20
6.112387569441281
 42
-0.4142135623730951
 10
6.91291970359445
 20
6.10238756944129
 10
6.860419703594441
 20
6.102387569441233
 42
0.4142135623730951
 10
6.829419703594436
 20
6.071387569441228
 10
6.829419703594492
 20
6.071387569441228
 10
6.829419703594492
 20
5.883387569441239
 42
0.4142135623730951
 10
6.860419703594441
 20
5.85238756944129
 10
6.91291970359445
 20
5.85238756944129
 42
-0.4142135623664355
 10
6.922919703594441
 20
5.842387569441299
 10
6.922919703594441
 20
5.737387569441281
 42
-0.4142135623730951
 10
6.91291970359445
 20
5.72738756944129
 10
6.860419703594441
 20
5.727387569441234
 42
0.4142135623730951
 10
6.829419703594434
 20
5.696387569441228
 10
6.829419703594492
 20
5.696387569441228
 10
6.829419703594492
 20
5.487387569441281
 42
0.4142135623730951
 10
6.839419703594483
 20
5.47738756944129
 10
7.845919703594443
 20
5.47738756944129
 10
7.845919703594443
 20
5.477387569441347
 42
0.4142135623708753
 10
7.860919703594543
 20
5.492387569441277
 10
7.860919703594543
 20
5.818507828963035
 10
7.860919703594545
 20
5.818507828963035
 42
0.9367204522005179
 10
4.585919703594443
 20
5.818507828962921
 10
4.585919703594452
 20
5.818507828962921
 10
4.585919703594452
 20
5.492387569441277
 10
4.585919703594509
 20
5.492387569441277
 42
0.4142135623708751
 10
4.600919703594552
 20
5.477387569441347
 10
4.600919703594552
 20
5.47738756944129
 10
5.607419703594512
 20
5.47738756944129
 42
0.4142135623730951
 10
5.617419703594503
 20
5.487387569441281
 10
5.617419703594503
 20
5.696387569441228
 10
5.617419703594559
 20
5.696387569441228
 42
0.4142135623730951
 10
5.586419703594554
 20
5.727387569441233
 10
5.586419703594554
 20
5.72738756944129
 10
5.533919703594545
 20
5.72738756944129
 42
-0.4142135623730951
 10
5.523919703594554
 20
5.737387569441281
 10
5.523919703594554
 20
5.842387569441299
 42
-0.4142135623730951
 10
5.533919703594545
 20
5.85238756944129
 10
5.586419703594554
 20
5.85238756944129
 42
0.4142135623730951
 10
5.617419703594503
 20
5.883387569441239
 10
5.617419703594503
 20
6.071387569441228
 10
5.617419703594559
 20
6.071387569441228
 42
0.4142135623730951
 10
5.586419703594554
 20
6.102387569441233
 10
5.586419703594554
 20
6.10238756944129
 10
5.533919703594545
 20
6.10238756944129
 42
-0.4142135623730951
 10
5.523919703594554
 20
6.112387569441281
 10
5.523919703594554
 20
6.217387569441299
 42
-0.4142135623730951
 10
5.533919703594545
 20
6.22738756944129
 10
5.586419703594554
 20
6.22738756944129
 42
0.4142135623730951
 10
5.617419703594503
 20
6.258387569441239
 10
5.617419703594503
 20
6.446387569441228
 10
5.617419703594559
 20
6.446387569441228
 42
0.4142135623730951
 10
5.586419703594554
 20
6.47738756944129
 10
5.538919703594427
 20
6.477387569441346
 42
-0.4142135623730951
 10
5.523919703594496
 20
6.492387569441277
 10
5.523919703594554
 20
6.492387569441277
 10
5.523919703594497
 20
6.571387569441228
 42
-0.4142135623730951
 10
5.554919703594503
 20
6.602387569441233
 10
5.554919703594503
 20
6.60238756944129
 10
5.963419703594507
 20
6.60238756944129
 10
5.973419703594498
 20
6.612387569441281
 10
5.983419703594488
 20
6.60238756944129
 10
6.463419703594507
 20
6.60238756944129
 10
6.473419703594498
 20
6.612387569441281
 10
6.483419703594488
 20
6.60238756944129
 10
6.891919703594492
 20
6.60238756944129
 10
6.891919703594492
 20
6.602387569441233
 42
-0.4142135623730951
 10
6.922919703594441
 20
6.571387569441228
 10
6.922919703594441
 20
6.487387569441281
 42
-0.4142135623730951
 10
6.91291970359445
 20
6.47738756944129
  0
LWPOLYLINE
  5
317
330
1F
100
AcDbEntity
  8
L
 62
     5
100
AcDbPolyline
 90
        2
 70
     1
 43
0.0
 10
4.585919703594509
 20
5.492387569441277
 10
4.585919703594452
 20
5.492387569441277
  0
LWPOLYLINE
  5
318
330
1F
100
AcDbEntity
  8
L
 62
     5
100
AcDbPolyline
 90
        2
 70
     1
 43
0.0
 10
4.585919703594452
 20
5.818507828962921
 10
4.585919703594443
 20
5.818507828962921
  0
LWPOLYLINE
  5
319
330
1F
100
AcDbEntity
  8
L
 62
     5
100
AcDbPolyline
 90
        2
 70
     1
 43
0.0
 10
4.600919703594552
 20
5.47738756944129
 10
4.600919703594552
 20
5.477387569441347
  0
LWPOLYLINE
  5
31C
330
1F
100
AcDbEntity
  8
L
 62
     5
100
AcDbPolyline
 90
        2
 70
     1
 43
0.0
 10
4.685919703594588
 20
5.639387569441211
 10
4.685919703594532
 20
5.639387569441211
  0
LWPOLYLINE
  5
31D
330
1F
100
AcDbEntity
  8
L
 62
     5
100
AcDbPolyline
 90
        2
 70
     1
 43
0.0
 10
4.747919703594487
 20
5.577387569441256
 10
4.747919703594487
 20
5.577387569441199
  0
LWPOLYLINE
  5
31E
330
1F
100
AcDbEntity
  8
L
 62
     5
100
AcDbPolyline
 90
        2
 70
     1
 43
0.0
 10
4.685919703594541
 20
5.815189062686773
 10
4.685919703594588
 20
5.815189062686769
  0
LWPOLYLINE
  5
323
330
1F
100
AcDbEntity
  8
L
 62
     5
100
AcDbPolyline
 90
        2
 70
     1
 43
0.0
 10
5.429419703594401
 20
5.8513875694412
 10
5.429419703594428
 20
5.851387569441197
  0
LWPOLYLINE
  5
329
330
1F
100
AcDbEntity
  8
L
 62
     5
100
AcDbPolyline
 90
        2
 70
     1
 43
0.0
 10
5.586419703594554
 20
5.72738756944129
 10
5.586419703594554
 20
5.727387569441233
  0
LWPOLYLINE
  5
32A
330
1F
100
AcDbEntity
  8
L
 62
     5
100
AcDbPolyline
 90
        2
 70
     1
 43
0.0
 10
5.617419703594559
 20
5.696387569441228
 10
5.617419703594503
 20
5.696387569441228
  0
LWPOLYLINE
  5
337
330
1F
100
AcDbEntity
  8
L
 62
     5
100
AcDbPolyline
 90
        2
 70
     1
 43
0.0
 10
5.240229802720861
 20
6.201690683503149
 10
5.240229802720858
 20
6.201690683503144
  0
LWPOLYLINE
  5
339
330
1F
100
AcDbEntity
  8
L
 62
     5
100
AcDbPolyline
 90
        2
 70
     1
 43
0.0
 10
5.51097233517332
 20
5.930634999208128
 10
5.51097233517332
 20
5.930634999208128
  0
LWPOLYLINE
  5
33B
330
1F
100
AcDbEntity
  8
L
 62
     5
100
AcDbPolyline
 90
        2
 70
     1
 43
0.0
 10
5.523919703594554
 20
5.945493892289434
 10
5.523919703594554
 20
5.945493892289434
  0
LWPOLYLINE
  5
33D
330
1F
100
AcDbEntity
  8
L
 62
     5
100
AcDbPolyline
 90
        2
 70
     1
 43
0.0
 10
5.523919703594771
 20
6.010281246593123
 10
5.523919703594771
 20
6.010281246593123
  0
LWPOLYLINE
  5
33F
330
1F
100
AcDbEntity
  8
L
 62
     5
100
AcDbPolyline
 90
        2
 70
     1
 43
0.0
 10
5.51097233517332
 20
6.025140139674429
 10
5.510972335173323
 20
6.025140139674466
  0
LWPOLYLINE
  5
341
330
1F
100
AcDbEntity
  8
L
 62
     5
100
AcDbPolyline
 90
        2
 70
     1
 43
0.0
 10
5.390402462215137
 20
6.171239189414587
 10
5.39040246221512
 20
6.171239189414649
  0
LWPOLYLINE
  5
342
330
1F
100
AcDbEntity
  8
L
 62
     5
100
AcDbPolyline
 90
        2
 70
     1
 43
0.0
 10
5.429419703594401
 20
6.104387569441243
 10
5.429419703594401
 20
6.104387569441243
  0
LWPOLYLINE
  5
344
330
1F
100
AcDbEntity
  8
L
 62
     5
100
AcDbPolyline
 90
        2
 70
     1
 43
0.0
 10
5.429419703594401
 20
6.141293841851663
 10
5.429419703594429
 20
6.141293841851663
  0
LWPOLYLINE
  5
348
330
1F
100
AcDbEntity
  8
L
 62
     5
100
AcDbPolyline
 90
        2
 70
     1
 43
0.0
 10
5.240229802720858
 20
6.47308445537935
 10
5.240229802720861
 20
6.473084455379344
  0
LWPOLYLINE
  5
349
330
1F
100
AcDbEntity
  8
L
 62
     5
100
AcDbPolyline
 90
       59
 70
     1
 43
0.0
 10
5.523919703594497
 20
6.322387569441204
 42
-0.4142135623708753
 10
5.508919703594454
 20
6.307387569441218
 10
5.427307663391882
 20
6.307387569441218
 10
5.427307663391882
 20
6.307387569441242
 42
0.2729194727224886
 10
5.414180573102029
 20
6.299645633957383
 10
5.414180573102065
 20
6.299645633957363
 42
-0.4608758526567006
 10
5.29799056250055
 20
6.275850609539002
 10
5.297990562500597
 20
6.275850609539062
 42
0.9999999999999998
 10
5.240229802720858
 20
6.201690683503144
 10
5.240229802720861
 20
6.201690683503149
 42
0.2350179442831489
 10
5.39040246221512
 20
6.171239189414648
 10
5.390402462215137
 20
6.171239189414587
 42
-0.4930816061822008
 10
5.429419703594428
 20
6.141293841851663
 10
5.429419703594401
 20
6.141293841851663
 10
5.429419703594401
 20
6.104387569441243
 10
5.429419703594493
 20
6.104387569441255
 42
0.3462186038638595
 10
5.510972335173323
 20
6.025140139674465
 10
5.51097233517332
 20
6.025140139674429
 42
-0.3745554556733873
 10
5.523919703594771
 20
6.010281246593123
 10
5.523919703594554
 20
6.010281246593123
 10
5.523919703594554
 20
5.945493892289434
 10
5.523919703594771
 20
5.945493892289434
 42
-0.3745554556733874
 10
5.51097233517332
 20
5.930634999208128
 10
5.510972335173328
 20
5.930634999208044
 42
0.3462186038638962
 10
5.429419703594428
 20
5.851387569441197
 10
5.429419703594401
 20
5.8513875694412
 10
5.429419703594401
 20
5.639387569441211
 42
-0.4142135623730951
 10
5.367419703594503
 20
5.577387569441313
 10
4.747919703594487
 20
5.577387569441199
 10
4.747919703594487
 20
5.577387569441256
 42
-0.4142135623730951
 10
4.685919703594532
 20
5.639387569441211
 10
4.685919703594588
 20
5.639387569441211
 10
4.685919703594588
 20
5.815189062686769
 10
4.685919703594541
 20
5.815189062686773
 42
-0.1872897791112521
 10
5.158661701879215
 20
6.825376527099058
 10
5.15866170187916
 20
6.825376527099115
 42
-0.4076118490898419
 10
5.2453413853281
 20
6.824397345212831
 10
5.245341385328099
 20
6.82439734521283
 10
5.412821900949136
 20
6.644299183518953
 10
5.412821900949063
 20
6.644299183518884
 42
-0.1894987697151124
 10
5.429419703594296
 20
6.602077856261686
 10
5.429419703594401
 20
6.602077856261686
 10
5.429419703594401
 20
6.533481297030945
 10
5.429419703594473
 20
6.533481297030945
 42
-0.4930816061833525
 10
5.390402462215125
 20
6.503535949467864
 10
5.39040246221512
 20
6.503535949467845
 42
0.2350179442831499
 10
5.240229802720861
 20
6.473084455379344
 10
5.240229802720858
 20
6.47308445537935
 42
0.9999999999999998
 10
5.297990562500597
 20
6.398924529343432
 10
5.297990562500605
 20
6.398924529343422
 42
-0.4608758526560418
 10
5.414180573102018
 20
6.375129504925104
 10
5.414180573102029
 20
6.375129504925111
 42
0.2729194727224804
 10
5.427307663391882
 20
6.367387569441252
 10
5.427307663391882
 20
6.367387569441277
 10
5.508919703594454
 20
6.367387569441277
 10
5.508919703594454
 20
6.367387569441333
 42
-0.4142135623730951
 10
5.523919703594497
 20
6.35238756944129
 10
5.523919703594554
 20
6.35238756944129
 10
5.523919703594554
 20
6.322387569441204
  0
LWPOLYLINE
  5
34C
330
1F
100
AcDbEntity
  8
L
 62
     5
100
AcDbPolyline
 90
        2
 70
     1
 43
0.0
 10
5.297990562500597
 20
6.275850609539062
 10
5.29799056250055
 20
6.275850609539002
  0
LWPOLYLINE
  5
34D
330
1F
100
AcDbEntity
  8
L
 62
     5
100
AcDbPolyline
 90
        2
 70
     1
 43
0.0
 10
5.297990562500605
 20
6.398924529343422
 10
5.297990562500597
 20
6.398924529343432
  0
LWPOLYLINE
  5
34E
330
1F
100
AcDbEntity
  8
L
 62
     5
100
AcDbPolyline
 90
        2
 70
     1
 43
0.0
 10
5.414180573102065
 20
6.299645633957363
 10
5.414180573102029
 20
6.299645633957383
  0
LWPOLYLINE
  5
34F
330
1F
100
AcDbEntity
  8
L
 62
     5
100
AcDbPolyline
 90
        2
 70
     1
 43
0.0
 10
5.427307663391882
 20
6.307387569441218
 10
5.427307663391882
 20
6.307387569441218
  0
LWPOLYLINE
  5
351
330
1F
100
AcDbEntity
  8
L
 62
     5
100
AcDbPolyline
 90
        2
 70
     1
 43
0.0
 10
5.508919703594454
 20
6.307387569441274
 10
5.508919703594454
 20
6.307387569441274
  0
LWPOLYLINE
  5
353
330
1F
100
AcDbEntity
  8
L
 62
     5
100
AcDbPolyline
 90
        2
 70
     1
 43
0.0
 10
5.523919703594554
 20
6.322387569441204
 10
5.523919703594554
 20
6.322387569441204
  0
LWPOLYLINE
  5
355
330
1F
100
AcDbEntity
  8
L
 62
     5
100
AcDbPolyline
 90
        2
 70
     1
 43
0.0
 10
5.523919703594497
 20
6.35238756944129
 10
5.523919703594497
 20
6.35238756944129
  0
LWPOLYLINE
  5
357
330
1F
100
AcDbEntity
  8
L
 62
     5
100
AcDbPolyline
 90
        2
 70
     1
 43
0.0
 10
5.508919703594454
 20
6.367387569441277
 10
5.508919703594454
 20
6.367387569441277
  0
LWPOLYLINE
  5
359
330
1F
100
AcDbEntity
  8
L
 62
     5
100
AcDbPolyline
 90
        2
 70
     1
 43
0.0
 10
5.427307663391882
 20
6.367387569441277
 10
5.427307663391882
 20
6.367387569441252
  0
LWPOLYLINE
  5
35A
330
1F
100
AcDbEntity
  8
L
 62
     5
100
AcDbPolyline
 90
        2
 70
     1
 43
0.0
 10
5.414180573102029
 20
6.375129504925111
 10
5.414180573102017
 20
6.375129504925104
  0
LWPOLYLINE
  5
35C
330
1F
100
AcDbEntity
  8
L
 62
     5
100
AcDbPolyline
 90
        2
 70
     1
 43
0.0
 10
5.39040246221512
 20
6.503535949467845
 10
5.390402462215125
 20
6.503535949467865
  0
LWPOLYLINE
  5
35D
330
1F
100
AcDbEntity
  8
L
 62
     5
100
AcDbPolyline
 90
        2
 70
     1
 43
0.0
 10
5.429419703594401
 20
6.533481297030945
 10
5.429419703594401
 20
6.533481297030945
  0
LWPOLYLINE
  5
35F
330
1F
100
AcDbEntity
  8
L
 62
     5
100
AcDbPolyline
 90
        2
 70
     1
 43
0.0
 10
5.429419703594401
 20
6.602077856261686
 10
5.429419703594295
 20
6.602077856261686
  0
LWPOLYLINE
  5
360
330
1F
100
AcDbEntity
  8
L
 62
     5
100
AcDbPolyline
 90
        2
 70
     1
 43
0.0
 10
5.523919703594554
 20
6.571387569441228
 10
5.523919703594554
 20
6.571387569441228
  0
LWPOLYLINE
  5
362
330
1F
100
AcDbEntity
  8
L
 62
     5
100
AcDbPolyline
 90
        2
 70
     1
 43
0.0
 10
5.523919703594554
 20
6.492387569441277
 10
5.523919703594496
 20
6.492387569441277
  0
LWPOLYLINE
  5
365
330
1F
100
AcDbEntity
  8
L
 62
     5
100
AcDbPolyline
 90
        2
 70
     1
 43
0.0
 10
5.617419703594559
 20
6.071387569441228
 10
5.617419703594503
 20
6.071387569441228
  0
LWPOLYLINE
  5
368
330
1F
100
AcDbEntity
  8
L
 62
     5
100
AcDbPolyline
 90
        2
 70
     1
 43
0.0
 10
5.586419703594554
 20
6.10238756944129
 10
5.586419703594554
 20
6.102387569441233
  0
LWPOLYLINE
  5
36B
330
1F
100
AcDbEntity
  8
L
 62
     5
100
AcDbPolyline
 90
        2
 70
     1
 43
0.0
 10
5.554919703594503
 20
6.60238756944129
 10
5.554919703594503
 20
6.602387569441233
  0
LWPOLYLINE
  5
36C
330
1F
100
AcDbEntity
  8
L
 62
     5
100
AcDbPolyline
 90
        2
 70
     1
 43
0.0
 10
5.538919703594427
 20
6.47738756944129
 10
5.538919703594427
 20
6.47738756944129
  0
LWPOLYLINE
  5
36E
330
1F
100
AcDbEntity
  8
L
 62
     5
100
AcDbPolyline
 90
        2
 70
     1
 43
0.0
 10
5.586419703594554
 20
6.477387569441233
 10
5.586419703594554
 20
6.477387569441233
  0
LWPOLYLINE
  5
370
330
1F
100
AcDbEntity
  8
L
 62
     5
100
AcDbPolyline
 90
        2
 70
     1
 43
0.0
 10
5.617419703594559
 20
6.446387569441228
 10
5.617419703594503
 20
6.446387569441228
  0
LWPOLYLINE
  5
374
330
1F
100
AcDbEntity
  8
L
 62
     5
100
AcDbPolyline
 90
        2
 70
     1
 43
0.0
 10
5.15866170187916
 20
6.825376527099115
 10
5.158661701879215
 20
6.825376527099058
  0
LWPOLYLINE
  5
376
330
1F
100
AcDbEntity
  8
L
 62
     5
100
AcDbPolyline
 90
        2
 70
     1
 43
0.0
 10
5.412821900949063
 20
6.644299183518884
 10
5.412821900949136
 20
6.644299183518953
  0
LWPOLYLINE
  5
380
330
1F
100
AcDbEntity
  8
L
 62
     5
100
AcDbPolyline
 90
        2
 70
     1
 43
0.0
 10
6.829419703594492
 20
5.696387569441228
 10
6.829419703594434
 20
5.696387569441228
  0
LWPOLYLINE
  5
381
330
1F
100
AcDbEntity
  8
L
 62
     5
100
AcDbPolyline
 90
        2
 70
     1
 43
0.0
 10
6.860419703594441
 20
5.72738756944129
 10
6.860419703594441
 20
5.72738756944129
  0
LWPOLYLINE
  5
384
330
1F
100
AcDbEntity
  8
L
 62
     5
100
AcDbPolyline
 90
        2
 70
     1
 43
0.0
 10
6.922919703594214
 20
5.842387569441299
 10
6.922919703594214
 20
5.842387569441299
  0
LWPOLYLINE
  5
38B
330
1F
100
AcDbEntity
  8
L
 62
     5
100
AcDbPolyline
 90
        2
 70
     1
 43
0.0
 10
7.017419703594367
 20
5.639387569441211
 10
7.01741970359448
 20
5.639387569441211
  0
LWPOLYLINE
  5
38C
330
1F
100
AcDbEntity
  8
L
 62
     5
100
AcDbPolyline
 90
        2
 70
     1
 43
0.0
 10
7.017419703594561
 20
5.851387569441226
 10
7.017419703594367
 20
5.8513875694412
  0
LWPOLYLINE
  5
38E
330
1F
100
AcDbEntity
  8
L
 62
     5
100
AcDbPolyline
 90
        2
 70
     1
 43
0.0
 10
7.860919703594486
 20
5.492387569441277
 10
7.860919703594486
 20
5.492387569441277
  0
LWPOLYLINE
  5
390
330
1F
100
AcDbEntity
  8
L
 62
     5
100
AcDbPolyline
 90
        2
 70
     1
 43
0.0
 10
7.845919703594443
 20
5.477387569441347
 10
7.845919703594443
 20
5.47738756944129
  0
LWPOLYLINE
  5
393
330
1F
100
AcDbEntity
  8
L
 62
     5
100
AcDbPolyline
 90
        2
 70
     1
 43
0.0
 10
7.698919703594508
 20
5.577387569441199
 10
7.698919703594508
 20
5.577387569441256
  0
LWPOLYLINE
  5
394
330
1F
100
AcDbEntity
  8
L
 62
     5
100
AcDbPolyline
 90
        2
 70
     1
 43
0.0
 10
7.760919703594463
 20
5.639387569441211
 10
7.760919703594407
 20
5.639387569441211
  0
LWPOLYLINE
  5
395
330
1F
100
AcDbEntity
  8
L
 62
     5
100
AcDbPolyline
 90
        2
 70
     1
 43
0.0
 10
7.760919703594407
 20
5.815189062686769
 10
7.760919703594343
 20
5.815189062686765
  0
LWPOLYLINE
  5
396
330
1F
100
AcDbEntity
  8
L
 62
     5
100
AcDbPolyline
 90
        2
 70
     1
 43
0.0
 10
7.860919703594545
 20
5.818507828963035
 10
7.860919703594543
 20
5.818507828963035
  0
LWPOLYLINE
  5
39F
330
1F
100
AcDbEntity
  8
L
 62
     5
100
AcDbPolyline
 90
        2
 70
     1
 43
0.0
 10
6.935867072015452
 20
6.025140139674396
 10
6.935867072015452
 20
6.025140139674397
  0
LWPOLYLINE
  5
3A1
330
1F
100
AcDbEntity
  8
L
 62
     5
100
AcDbPolyline
 90
        2
 70
     1
 43
0.0
 10
6.922919703594441
 20
6.010281246593123
 10
6.922919703594441
 20
6.010281246593123
  0
LWPOLYLINE
  5
3A3
330
1F
100
AcDbEntity
  8
L
 62
     5
100
AcDbPolyline
 90
        2
 70
     1
 43
0.0
 10
6.922919703594337
 20
5.945493892289434
 10
6.922919703594338
 20
5.945493892289434
  0
LWPOLYLINE
  5
3A5
330
1F
100
AcDbEntity
  8
L
 62
     5
100
AcDbPolyline
 90
        2
 70
     1
 43
0.0
 10
6.935867072015452
 20
5.93063499920816
 10
6.935867072015442
 20
5.930634999208066
  0
LWPOLYLINE
  5
3A6
330
1F
100
AcDbEntity
  8
L
 62
     5
100
AcDbPolyline
 90
        2
 70
     1
 43
0.0
 10
6.829419703594492
 20
6.071387569441228
 10
6.829419703594436
 20
6.071387569441228
  0
LWPOLYLINE
  5
3A7
330
1F
100
AcDbEntity
  8
L
 62
     5
100
AcDbPolyline
 90
        2
 70
     1
 43
0.0
 10
6.860419703594441
 20
6.10238756944129
 10
6.860419703594441
 20
6.10238756944129
  0
LWPOLYLINE
  5
3AD
330
1F
100
AcDbEntity
  8
L
 62
     5
100
AcDbPolyline
 90
        2
 70
     1
 43
0.0
 10
6.860419703594441
 20
6.22738756944129
 10
6.860419703594441
 20
6.227387569441291
  0
LWPOLYLINE
  5
3B2
330
1F
100
AcDbEntity
  8
L
 62
     5
100
AcDbPolyline
 90
        2
 70
     1
 43
0.0
 10
6.922919703594669
 20
6.317387569441208
 10
6.922919703594669
 20
6.317387569441208
  0
LWPOLYLINE
  5
3B4
330
1F
100
AcDbEntity
  8
L
 62
     5
100
AcDbPolyline
 90
        2
 70
     1
 43
0.0
 10
6.829419703594493
 20
6.258387569441239
 10
6.829419703594492
 20
6.258387569441239
  0
LWPOLYLINE
  5
3B7
330
1F
100
AcDbEntity
  8
L
 62
     5
100
AcDbPolyline
 90
        2
 70
     1
 43
0.0
 10
6.891919703594492
 20
6.602387569441233
 10
6.891919703594492
 20
6.60238756944129
  0
LWPOLYLINE
  5
3B8
330
1F
100
AcDbEntity
  8
L
 62
     5
100
AcDbPolyline
 90
        2
 70
     1
 43
0.0
 10
6.829419703594435
 20
6.446387569441228
 10
6.829419703594435
 20
6.446387569441228
  0
LWPOLYLINE
  5
3BA
330
1F
100
AcDbEntity
  8
L
 62
     5
100
AcDbPolyline
 90
        2
 70
     1
 43
0.0
 10
6.860419703594441
 20
6.47738756944129
 10
6.860419703594441
 20
6.47738756944129
  0
LWPOLYLINE
  5
3C2
330
1F
100
AcDbEntity
  8
L
 62
     5
100
AcDbPolyline
 90
        2
 70
     1
 43
0.0
 10
7.017419703594367
 20
6.141293841851663
 10
7.017419703594367
 20
6.141293841851663
  0
LWPOLYLINE
  5
3C4
330
1F
100
AcDbEntity
  8
L
 62
     5
100
AcDbPolyline
 90
        2
 70
     1
 43
0.0
 10
7.017419703594367
 20
6.104387569441243
 10
7.0174197035945
 20
6.104387569441225
  0
LWPOLYLINE
  5
3C5
330
1F
100
AcDbEntity
  8
L
 62
     5
100
AcDbPolyline
 90
        2
 70
     1
 43
0.0
 10
7.056436944973875
 20
6.171239189414651
 10
7.056436944973859
 20
6.17123918941459
  0
LWPOLYLINE
  5
3C6
330
1F
100
AcDbEntity
  8
L
 62
     5
100
AcDbPolyline
 90
        2
 70
     1
 43
0.0
 10
7.206609604468138
 20
6.201690683503144
 10
7.206609604468132
 20
6.201690683503151
  0
LWPOLYLINE
  5
3CA
330
1F
100
AcDbEntity
  8
L
 62
     5
100
AcDbPolyline
 90
        2
 70
     1
 43
0.0
 10
7.032658834086859
 20
6.375129504925169
 10
7.032658834086858
 20
6.37512950492517
  0
LWPOLYLINE
  5
3CB
330
1F
100
AcDbEntity
  8
L
 62
     5
100
AcDbPolyline
 90
       56
 70
     1
 43
0.0
 10
7.019531743796886
 20
6.307387569441201
 10
7.019531743796886
 20
6.307387569441218
 10
6.932919703594432
 20
6.307387569441218
 42
-0.4142135623664355
 10
6.922919703594669
 20
6.317387569441208
 10
6.922919703594441
 20
6.317387569441208
 10
6.922919703594441
 20
6.357387569441286
 42
-0.4142135623730951
 10
6.932919703594432
 20
6.367387569441277
 10
7.019531743796886
 20
6.367387569441277
 10
7.019531743796886
 20
6.367387569441293
 42
0.2729194727208827
 10
7.032658834086859
 20
6.375129504925169
 10
7.032658834086991
 20
6.375129504925098
 42
-0.4608758526560396
 10
7.148848844688382
 20
6.398924529343411
 10
7.148848844688398
 20
6.398924529343432
 42
0.9999999999999998
 10
7.206609604468138
 20
6.47308445537935
 10
7.206609604468173
 20
6.473084455379396
 42
0.2356909345549432
 10
7.056013299653566
 20
6.50342194806529
 10
7.05601329965353
 20
6.503421948065427
 42
-0.4938745603557077
 10
7.016919703594473
 20
6.533346748863934
 10
7.016919703594492
 20
6.533346748863934
 10
7.016919703594492
 20
6.614137786079183
 10
7.016919703594381
 20
6.614137786079183
 42
-0.1989123673799977
 10
7.035079083160875
 20
6.657978406512812
 10
7.035079083160933
 20
6.657978406512754
 10
7.20149802186081
 20
6.824397345212915
 42
-0.407611849089833
 10
7.288177705309552
 20
6.825376527099058
 10
7.288177705309478
 20
6.825376527098979
 42
-0.187289779111237
 10
7.760919703594343
 20
5.815189062686765
 10
7.760919703594407
 20
5.815189062686769
 10
7.760919703594407
 20
5.639387569441211
 10
7.760919703594463
 20
5.639387569441211
 42
-0.4142135623730951
 10
7.698919703594508
 20
5.577387569441256
 10
7.698919703594508
 20
5.577387569441199
 10
7.079419703594492
 20
5.577387569441313
 42
-0.4142135623725579
 10
7.01741970359448
 20
5.639387569441211
 10
7.017419703594367
 20
5.639387569441211
 10
7.017419703594367
 20
5.8513875694412
 10
7.017419703594561
 20
5.851387569441226
 42
0.3462186038644904
 10
6.935867072015442
 20
5.930634999208066
 10
6.935867072015452
 20
5.93063499920816
 42
-0.3745554556709886
 10
6.922919703594337
 20
5.945493892289434
 10
6.922919703594441
 20
5.945493892289434
 10
6.922919703594338
 20
6.010281246593123
 42
-0.3745554556709887
 10
6.935867072015452
 20
6.025140139674396
 10
6.935867072015447
 20
6.025140139674441
 42
0.3462186038644556
 10
7.017419703594499
 20
6.104387569441225
 10
7.017419703594367
 20
6.104387569441243
 10
7.017419703594367
 20
6.141293841851663
 10
7.017419703594453
 20
6.141293841851663
 42
-0.4930816061807766
 10
7.056436944973859
 20
6.171239189414591
 10
7.056436944973875
 20
6.171239189414651
 42
0.2350179442831496
 10
7.206609604468132
 20
6.201690683503151
 10
7.206609604468138
 20
6.201690683503144
 42
0.9999999999999998
 10
7.148848844688398
 20
6.275850609539062
 10
7.148848844688437
 20
6.275850609539013
 42
-0.4608758526567013
 10
7.032658834086943
 20
6.29964563395737
 10
7.032658834086858
 20
6.299645633957324
 42
0.2729194727208828
  0
LWPOLYLINE
  5
3CC
330
1F
100
AcDbEntity
  8
L
 62
     5
100
AcDbPolyline
 90
        2
 70
     1
 43
0.0
 10
7.019531743796886
 20
6.367387569441293
 10
7.019531743796886
 20
6.367387569441277
  0
LWPOLYLINE
  5
3CD
330
1F
100
AcDbEntity
  8
L
 62
     5
100
AcDbPolyline
 90
        2
 70
     1
 43
0.0
 10
7.019531743796886
 20
6.307387569441201
 10
7.019531743796886
 20
6.307387569441202
  0
LWPOLYLINE
  5
3CF
330
1F
100
AcDbEntity
  8
L
 62
     5
100
AcDbPolyline
 90
        2
 70
     1
 43
0.0
 10
7.032658834086858
 20
6.299645633957324
 10
7.032658834086943
 20
6.29964563395737
  0
LWPOLYLINE
  5
3D0
330
1F
100
AcDbEntity
  8
L
 62
     5
100
AcDbPolyline
 90
        2
 70
     1
 43
0.0
 10
7.148848844688398
 20
6.398924529343432
 10
7.148848844688382
 20
6.398924529343411
  0
LWPOLYLINE
  5
3D1
330
1F
100
AcDbEntity
  8
L
 62
     5
100
AcDbPolyline
 90
        2
 70
     1
 43
0.0
 10
7.148848844688437
 20
6.275850609539013
 10
7.148848844688398
 20
6.275850609539062
  0
LWPOLYLINE
  5
3D3
330
1F
100
AcDbEntity
  8
L
 62
     5
100
AcDbPolyline
 90
        2
 70
     1
 43
0.0
 10
7.016919703594492
 20
6.533346748863934
 10
7.016919703594473
 20
6.533346748863934
  0
LWPOLYLINE
  5
3D4
330
1F
100
AcDbEntity
  8
L
 62
     5
100
AcDbPolyline
 90
        2
 70
     1
 43
0.0
 10
7.05601329965353
 20
6.503421948065427
 10
7.056013299653566
 20
6.503421948065291
  0
LWPOLYLINE
  5
3D5
330
1F
100
AcDbEntity
  8
L
 62
     5
100
AcDbPolyline
 90
        2
 70
     1
 43
0.0
 10
7.206609604468173
 20
6.473084455379396
 10
7.206609604468138
 20
6.47308445537935
  0
LWPOLYLINE
  5
3DA
330
1F
100
AcDbEntity
  8
L
 62
     5
100
AcDbPolyline
 90
        2
 70
     1
 43
0.0
 10
7.016919703594381
 20
6.614137786079183
 10
7.016919703594492
 20
6.614137786079183
  0
LWPOLYLINE
  5
3DB
330
1F
100
AcDbEntity
  8
L
 62
     5
100
AcDbPolyline
 90
        2
 70
     1
 43
0.0
 10
7.035079083160933
 20
6.657978406512754
 10
7.035079083160875
 20
6.657978406512812
  0
LWPOLYLINE
  5
3DC
330
1F
100
AcDbEntity
  8
L
 62
     5
100
AcDbPolyline
 90
        2
 70
     1
 43
0.0
 10
7.288177705309552
 20
6.825376527099058
 10
7.288177705309552
 20
6.825376527099058
  0
ENDSEC
  0
SECTION
  2
OBJECTS
  0
DICTIONARY
  5
C
330
0
100
AcDbDictionary
  3
ACAD_GROUP
350
D
  3
ACAD_LAYOUT
350
1A
  3
ACAD_MLINESTYLE
350
17
  3
ACAD_PLOTSETTINGS
350
19
  3
ACAD_PLOTSTYLENAME
350
E
  3
ACDBHEADERROUNDTRIPXREC
350
47A
  0
DICTIONARY
  5
49C
330
1F
100
AcDbDictionary
280
     1
  3
ACAD_LAYOUTSELFREF
360
49D
  0
DICTIONARY
  5
49A
330
1B
100
AcDbDictionary
280
     1
  3
ACAD_LAYOUTSELFREF
360
49B
  0
DICTIONARY
  5
D
102
{ACAD_REACTORS
330
C
102
}
330
C
100
AcDbDictionary
  0
DICTIONARY
  5
1A
102
{ACAD_REACTORS
330
C
102
}
330
C
100
AcDbDictionary
  0
DICTIONARY
  5
17
102
{ACAD_REACTORS
330
C
102
}
330
C
100
AcDbDictionary
  3
STANDARD
350
18
  0
DICTIONARY
  5
19
102
{ACAD_REACTORS
330
C
102
}
330
C
100
AcDbDictionary
  0
ACDBDICTIONARYWDFLT
  5
E
102
{ACAD_REACTORS
330
C
102
}
330
C
100
AcDbDictionary
281
     1
  3
Normal
350
F
100
AcDbDictionaryWithDefault
340
F
  0
DICTIONARY
  5
47A
102
{ACAD_REACTORS
330
C
102
}
330
C
100
AcDbDictionary
  3
CEPSNTYPE
350
484
  3
FINGERPRINTGUID
350
485
  3
HYPERLINKBASE
350
47D
  3
INSUNITS
350
483
  3
LAYOUTDICT
350
47F
  3
LWETCUNION
350
482
  3
PLOTSETDICT
350
480
  3
PLOTSTYLNAMDICT
350
481
  3
PSVPSCALE
350
487
  3
PUCSBASE
350
48A
  3
PUCSORGBACK
350
490
  3
PUCSORGBOTTOM
350
48C
  3
PUCSORGFRONT
350
48F
  3
PUCSORGLEFT
350
48D
  3
PUCSORGRIGHT
350
48E
  3
PUCSORGTOP
350
48B
  3
PUCSORTHOREF
350
488
  3
PUCSORTHOVIEW
350
489
  3
STYLESHEET
350
47E
  3
TSTACKALIGN
350
47B
  3
TSTACKSIZE
350
47C
  3
UCSBASE
350
493
  3
UCSORGBACK
350
499
  3
UCSORGBOTTOM
350
495
  3
UCSORGFRONT
350
498
  3
UCSORGLEFT
350
496
  3
UCSORGRIGHT
350
497
  3
UCSORGTOP
350
494
  3
UCSORTHOREF
350
491
  3
UCSORTHOVIEW
350
492
  3
VERSIONGUID
350
486
  0
XRECORD
  5
49D
102
{ACAD_REACTORS
330
49C
102
}
330
49C
100
AcDbXrecord
340
1F
  0
XRECORD
  5
49B
102
{ACAD_REACTORS
330
49A
102
}
330
49A
100
AcDbXrecord
340
1B
  0
MLINESTYLE
  5
18
102
{ACAD_REACTORS
330
17
102
}
330
17
100
AcDbMlineStyle
  2
STANDARD
 70
     0
  3

 62
   256
 51
90.0
 52
90.0
 71
     2
 49
0.5
 62
   256
  6
BYLAYER
 49
-0.5
 62
   256
  6
BYLAYER
  0
ACDBPLACEHOLDER
  5
F
102
{ACAD_REACTORS
330
E
102
}
330
E
100
AcDbPlaceHolder
280
     0
  0
XRECORD
  5
484
102
{ACAD_REACTORS
330
47A
102
}
330
47A
100
AcDbXrecord
 90
        0
  0
XRECORD
  5
485
102
{ACAD_REACTORS
330
47A
102
}
330
47A
100
AcDbXrecord
  1
{DC175E3D-AE85-11D5-9A93-0040C77E826B}
  0
XRECORD
  5
47D
102
{ACAD_REACTORS
330
47A
102
}
330
47A
100
AcDbXrecord
  1

  0
XRECORD
  5
483
102
{ACAD_REACTORS
330
47A
102
}
330
47A
100
AcDbXrecord
 90
        1
  0
XRECORD
  5
47F
102
{ACAD_REACTORS
330
47A
102
}
330
47A
100
AcDbXrecord
340
1A
  0
XRECORD
  5
482
102
{ACAD_REACTORS
330
47A
102
}
330
47A
100
AcDbXrecord
 90
    10781
  0
XRECORD
  5
480
102
{ACAD_REACTORS
330
47A
102
}
330
47A
100
AcDbXrecord
340
19
  0
XRECORD
  5
481
102
{ACAD_REACTORS
330
47A
102
}
330
47A
100
AcDbXrecord
340
E
  0
XRECORD
  5
487
102
{ACAD_REACTORS
330
47A
102
}
330
47A
100
AcDbXrecord
 40
0.0
  0
XRECORD
  5
48A
102
{ACAD_REACTORS
330
47A
102
}
330
47A
100
AcDbXrecord
340
0
  0
XRECORD
  5
490
102
{ACAD_REACTORS
330
47A
102
}
330
47A
100
AcDbXrecord
 10
0.0
 20
0.0
 30
0.0
  0
XRECORD
  5
48C
102
{ACAD_REACTORS
330
47A
102
}
330
47A
100
AcDbXrecord
 10
0.0
 20
0.0
 30
0.0
  0
XRECORD
  5
48F
102
{ACAD_REACTORS
330
47A
102
}
330
47A
100
AcDbXrecord
 10
0.0
 20
0.0
 30
0.0
  0
XRECORD
  5
48D
102
{ACAD_REACTORS
330
47A
102
}
330
47A
100
AcDbXrecord
 10
0.0
 20
0.0
 30
0.0
  0
XRECORD
  5
48E
102
{ACAD_REACTORS
330
47A
102
}
330
47A
100
AcDbXrecord
 10
0.0
 20
0.0
 30
0.0
  0
XRECORD
  5
48B
102
{ACAD_REACTORS
330
47A
102
}
330
47A
100
AcDbXrecord
 10
0.0
 20
0.0
 30
0.0
  0
XRECORD
  5
488
102
{ACAD_REACTORS
330
47A
102
}
330
47A
100
AcDbXrecord
340
0
  0
XRECORD
  5
489
102
{ACAD_REACTORS
330
47A
102
}
330
47A
100
AcDbXrecord
 70
     0
  0
XRECORD
  5
47E
102
{ACAD_REACTORS
330
47A
102
}
330
47A
100
AcDbXrecord
  1

  0
XRECORD
  5
47B
102
{ACAD_REACTORS
330
47A
102
}
330
47A
100
AcDbXrecord
 90
        1
  0
XRECORD
  5
47C
102
{ACAD_REACTORS
330
47A
102
}
330
47A
100
AcDbXrecord
 90
       70
  0
XRECORD
  5
493
102
{ACAD_REACTORS
330
47A
102
}
330
47A
100
AcDbXrecord
340
0
  0
XRECORD
  5
499
102
{ACAD_REACTORS
330
47A
102
}
330
47A
100
AcDbXrecord
 10
0.0
 20
0.0
 30
0.0
  0
XRECORD
  5
495
102
{ACAD_REACTORS
330
47A
102
}
330
47A
100
AcDbXrecord
 10
0.0
 20
0.0
 30
0.0
  0
XRECORD
  5
498
102
{ACAD_REACTORS
330
47A
102
}
330
47A
100
AcDbXrecord
 10
0.0
 20
0.0
 30
0.0
  0
XRECORD
  5
496
102
{ACAD_REACTORS
330
47A
102
}
330
47A
100
AcDbXrecord
 10
0.0
 20
0.0
 30
0.0
  0
XRECORD
  5
497
102
{ACAD_REACTORS
330
47A
102
}
330
47A
100
AcDbXrecord
 10
0.0
 20
0.0
 30
0.0
  0
XRECORD
  5
494
102
{ACAD_REACTORS
330
47A
102
}
330
47A
100
AcDbXrecord
 10
0.0
 20
0.0
 30
0.0
  0
XRECORD
  5
491
102
{ACAD_REACTORS
330
47A
102
}
330
47A
100
AcDbXrecord
340
0
  0
XRECORD
  5
492
102
{ACAD_REACTORS
330
47A
102
}
330
47A
100
AcDbXrecord
 70
     0
  0
XRECORD
  5
486
102
{ACAD_REACTORS
330
47A
102
}
330
47A
100
AcDbXrecord
  1
{73ACD748-C891-4040-8899-8CF73F425D8A}
  0
ENDSEC
  0
EOF
